Publicar nuevo tema  Responder al tema 
Página 1 de 1
 
 
KT Tunstall - Invisible Empire // Crescent Moon (2013) [FLAC | MP3]
Autor Mensaje
Responder citando   Descargar mensaje 
Mensaje KT Tunstall - Invisible Empire // Crescent Moon (2013) [FLAC | MP3] 
 
[align=center][img]https://lh6.googleusercontent.com/-DASGTFyNs8Y/U_qN98TUh_I/AAAAAAAACD8/H1NfbA1Zp60/s1000/Front.jpg[/img][/align]


[align=center][IMG]http://4.bp.blogspot.com/_8INwxK7N7U0/TE-jTGFSriI/AAAAAAAAEbc/2GubBBqPRM4/s1600/Datos.png[/IMG][/align]


[align=justify][font=Tahoma]Release date: June 10th, 2013

Length: 51:12

Genre: Acoustic Rock, Folk

Country: Scotland

Recorded: at Tucson, Arizona in April and November 2012

Mastered: by Jeremy Cooper at Soundtrap Mastering

Producer: Howe Gelb

Producer, Art direction: KT Tunstall

Producer (additional), Mixing: Martin Terefe

Engineering, Mixing: Chris Schultz and Ali Chant

Engineering: Dyre Gorsmen, Thomas Juth and Sam Keyte

Mixing: Craig Schumacher and Josh Parish

Art direction: Richard Melland and Dan Sanders

Photography: Jane Mingay

NOTE:

- Music videos were made for the songs Made Of Glass, Invisible Empire, Feel It All, Carried and Yellow Flower

Line-Up:

KT Tunstall - Vocals (lead), Guitars, Vibraphone, Piano, Flute
Martin Terefe - Guitars (additional)
Luke Bullen - Drums, Percussion

Guest/Session:

Howe Gelb - Piano, Keyboards, Guitars, Pedal, Delay swell, Vocals (tracks 10-13)
Brian Lopez - Guitars, Vocals (backing)
Marco Rosano - Clarinet, Saxophone
Nick Coventry - Strings
Asger Christensen - Violin
Iris Marie Jakobsen - Viola
Gabriel Sullivan - Guitars, Accordion, Vocals (backing), Vibraphone
Jon Villa - Trumpet
Sam Lewis - Guitars
Nikolaj Thorp Larsen - Piano
Will Houchin - Tuba, Euphonium
Thøger Tetens Lund - Bass, Cello, Guitars
Nastian Juel - Bass, Vocals (backing)
John Parish - Guitars, Percussion, Drums, Timpani
Chris Schultz - Waterphone
Andrew Bird - Whistle
Kristoffer Sonne - Percussion, Vocals (backing), Drums
Chris Black - Strings Arrangements
Eric Gardner - Drums, Percussion[/font][/align]


[align=center][b][font=Lucida Sans Unicode][size=14][color=#8CFF00][url=https://www.facebook.com/kttunstall]Facebook[/url] | [url=http://kttunstall.com/]Web Oficial[/url] | [url=http://www.myspace.com/kttunstall]MySpace[/url] | [url=http://twitter.com/kttunstall]Twitter[/url] | [url=http://www.youtube.com/KTTunstall]Youtube[/url][/color][/size][/font][/b][/align]


[align=center][IMG]http://1.bp.blogspot.com/_8INwxK7N7U0/TE-jTyqkKMI/AAAAAAAAEbs/k_tSZwWo4Jc/s1600/Informaci%C3%B3n.png[/IMG][/align]


[code linenumbers=false]Format : MPEG Audio
Format version : Version 1
Format profile : Layer 3
Duration : 3mn 53s
Bit rate mode : Constant
Bit rate : 320 Kbps
Channel(s) : 2 channels
Sampling rate : 44.1 KHz
Compression mode : Lossy
Stream size : 8.89 MiB (99%)
Writing library : LAME3.99r
Encoding settings : -m s -V 4 -q 2 -lowpass 20.5 [/code]

[code linenumbers=false]Format : FLAC
Format/Info : Free Lossless Audio Codec
Duration : 3mn 52s
Bit rate mode : Variable
Bit rate : 740 Kbps
Channel(s) : 2 channels
Sampling rate : 44.1 KHz
Bit depth : 16 bits
Stream size : 20.5 MiB (100%)
Writing library : libFLAC 1.2.1 (UTC 2007-11-17) [/code]


[align=center][IMG]http://4.bp.blogspot.com/_8INwxK7N7U0/TE-jUJHW5BI/AAAAAAAAEb0/einX0ObWsLA/s1600/Lista.png[/IMG][/align]


[cell class=spoiler][b][align=center][color=red]1.    Invisible Empire     (03:53)
2.    Made Of Glass     (04:11)
3.    How You Kill Me     (04:11)
4.    Carried     (03:42)
5.    Old Man Song     (03:13)
6.    Yellow Flower     (03:12)
7.    Crescent Moon     (03:52)
8.    Waiting On The Heart     (04:30)
9.    Feel It All     (04:12)
10.    Chimes     (03:38)
11.    Honeydew     (03:23)
12.    No Better Shoulder     (05:27)
13.    Feel It All - Band Jam (Radio Edit)     (03:50)[/color][/align][/b][/cell]


[align=center][IMG]http://4.bp.blogspot.com/_8INwxK7N7U0/TE-jUpt8gbI/AAAAAAAAEb8/lphU4a0eNX4/s1600/Tapas.png[/IMG][/align]


[align=center][spoiler]
[url=http://2.bp.blogspot.com/-ncJl0H-hPv0/U_qOKXiR3OI/AAAAAAAACEA/0YdD3nMkSjI/s1600/Back.jpg][img]http://2.bp.blogspot.com/-ncJl0H-hPv0/U_qOKXiR3OI/AAAAAAAACEA/0YdD3nMkSjI/s320/Back.jpg[/img][/url][url=http://1.bp.blogspot.com/-vTRL9TYwkIs/U_qN6GYIVWI/AAAAAAAACDw/1Bg-qs0_P2g/s1600/CD.jpg][img]http://1.bp.blogspot.com/-vTRL9TYwkIs/U_qN6GYIVWI/AAAAAAAACDw/1Bg-qs0_P2g/s320/CD.jpg[/img][/url][url=http://1.bp.blogspot.com/-DASGTFyNs8Y/U_qN98TUh_I/AAAAAAAACD4/ioaS0NP5w1A/s1600/Front.jpg][img]http://1.bp.blogspot.com/-DASGTFyNs8Y/U_qN98TUh_I/AAAAAAAACD4/ioaS0NP5w1A/s320/Front.jpg[/img][/url]
[/spoiler][/align]


[align=center][IMG]http://1.bp.blogspot.com/_8INwxK7N7U0/TE-kbHbz5-I/AAAAAAAAEcE/xrUKuFLvgww/s1600/Temas+Online.png[/IMG][/align]


[align=center][youtube]9Zn-UUoaW0A[/youtube][/align]

[align=center][youtube]ZUVh3x3-I-s[/youtube][/align]

[align=center][youtube]vSRm4sPFS-Q[/youtube][/align]

[align=center][youtube]iYmQpTlhw4M[/youtube][/align]

[align=center][youtube]nGV8gkvIuBc[/youtube][/align]


[align=center][IMG]http://3.bp.blogspot.com/_8INwxK7N7U0/TE-jTmMzllI/AAAAAAAAEbk/6SgA1Qtejpw/s1600/Descarga.png[/IMG][/align]


[align=center][b][size=14][color=gold]MP3[/color][/size][/b][/align]

[hide][align=center][url=http://adf.ly/rSGwx][b][size=14][color=#00FF00]DOWNLOAD[/color][/size][/b][/url][/align][/hide]


[align=center][b][size=14][color=gold]FLAC[/color][/size][/b][/align]

[hide][align=center][url=http://adf.ly/rSGxt][b][size=14][color=#00FF00]DOWNLOAD[/color][/size][/b][/url][/align][/hide]
 



 
Mortiferus Enviar mensaje privado Enviar correo al usuario
Volver arribaPágina inferior
Mostrar mensajes anteriores:    
 

Publicar nuevo tema  Responder al tema  Página 1 de 1
 


Ocultar¿Este tema fue útil?

 

Elegir valoración:                       

Media de valoración Valoración mínima Valoración máxima Número de valoraciones
0.00 0 0 0
Compartir este tema
Correo a un amigo Facebook Twitter Windows Live Favorites MySpace del.icio.us Digg SlashDot google.com LinkedIn StumbleUpon Blogmarks Diigo reddit.com Blinklist co.mments.com
technorati.com DIGG ITA linkagogo.com meneame.net netscape.com newsvine.com yahoo.com Fai Informazione Ok Notizie Segnalo Bookmark IT fark.com feedmelinks.com spurl.net
 

Usuarios navegando en este tema: 0 registrados, 0 ocultos y 0 invitados
Usuarios registrados conectados: Ninguno


 
Lista de permisos
No puede crear mensajes
No puede responder temas
No puede editar sus mensajes
No puede borrar sus mensajes
No puede votar en encuestas
No puede adjuntar archivos
No puede descargar archivos
No puede publicar eventos en el calendario