Publicar nuevo tema  Responder al tema 
Página 1 de 1
 
 
Jamiroquai - Emergency On Planet Earth (1993) [FLAC | MP3]
Autor Mensaje
Responder citando   Descargar mensaje 
Mensaje Jamiroquai - Emergency On Planet Earth (1993) [FLAC | MP3] 
 
[align=center][img]http://3.bp.blogspot.com/-QrEcWZNdyRU/Uig1gMy-W0I/AAAAAAAAQog/AkSQasrvHQc/s640/Front.jpg[/img][/align]


[align=center][IMG]http://4.bp.blogspot.com/_8INwxK7N7U0/TE-jTGFSriI/AAAAAAAAEbc/2GubBBqPRM4/s1600/Datos.png[/IMG][/align]


[b]Release date: May 17th, 1993

Length: 55:26

Genre: Acid Jazz, Funk

Country: England

Producer, Mixing: Jay Kay

Producer, Engineering, Mixing: Mike Nielsen

Engineering: Mark McGuire

Design: Creative Hands

Artwork: James Marsh

NOTES:

- Music videos were made for the songs When You Gonna Learn?, Emergency On Planet Earth, Blow Your Mind, Too Young To Die and If I Like It, I Do It

- The album was listed in the book 1001 Albums You Must Hear Before You Die

Line-Up:

Jay Kay - Vocals (lead)
Wallis Buchanan - Didgeridoo
Toby Smith - Keyboards, String Arrangements
Stuart Zender - Bass
Nick van Gelder - Drums
Gary Barnacle - Flute, Saxophone, Brass Arrangements
Simon Bartholomew - Guitars
Glenn Nightingale - Guitars
DJ D-Zire - Turntables
Maurizio Ravalico - Percussion
John Thirkell - Trumpet, Flugelhorn
Gavin Dodds - Guitars (additional)
Mike Smith - Saxophone (additional), Flute

Guest/Session:

Kofi Kari Kari - Percussion
Richard Edwards - Trombone
Andrew Levy - Bass (additional)
Linda Lewis - Vocals (backing)
Vanessa Simon - Vocals (backing)[/b]


[align=center][b][font=Lucida Sans Unicode][size=14][color=#8CFF00][url=http://www.facebook.com/pages/Jamiroquai/6220201117]Facebook[/url] | [url=http://www.jamiroquai.com/]Web Oficial[/url] | [url=http://www.myspace.com/jamiroquai]MySpace[/url] | [url=http://www.last.fm/music/Jamiroquai]Last.fm[/url] | [url=http://www.youtube.com/jamiroquaivideo]Youtube[/url][/color][/size][/font][/b][/align]


[align=center][IMG]http://1.bp.blogspot.com/_8INwxK7N7U0/TE-jTyqkKMI/AAAAAAAAEbs/k_tSZwWo4Jc/s1600/Informaci%C3%B3n.png[/IMG][/align]


[code linenumbers=false]Format : MPEG Audio
Format version : Version 1
Format profile : Layer 3
Duration : 4mn 53s
Bit rate mode : Constant
Bit rate : 320 Kbps
Channel(s) : 2 channels
Sampling rate : 44.1 KHz
Compression mode : Lossy
Stream size : 11.2 MiB (100%)
Writing library : LAME3.99r
Encoding settings : -m s -V 4 -q 2 -lowpass 20.5 [/code]

[code linenumbers=false]Format : FLAC
Format/Info : Free Lossless Audio Codec
Duration : 4mn 35s
Bit rate mode : Variable
Bit rate : 806 Kbps
Channel(s) : 2 channels
Sampling rate : 44.1 KHz
Bit depth : 16 bits
Stream size : 26.5 MiB (100%)
Writing library : libFLAC 1.2.1 (UTC 2007-09-17) [/code]


[align=center][IMG]http://4.bp.blogspot.com/_8INwxK7N7U0/TE-jUJHW5BI/AAAAAAAAEb0/einX0ObWsLA/s1600/Lista.png[/IMG][/align]


[cell class=spoiler][b][align=center][color=red]1.    When You Gonna Learn (Digeridoo)     (03:51)
2.    Too Young To Die     (06:06)
3.    Hooked Up     (04:36)
4.    If I Like It, I Do It     (04:53)
5.    Music Of The Mind     (06:23)
6.    Emergency On Planet Earth     (04:05)
7.    Whatever It Is, I Just Can't Stop     (04:07)
8.    Blow Your Mind     (08:32)
9.    Revolution 1993     (10:17)
10.    Didgin' Out     (02:37)[/color][/align][/b][/cell]


[align=center][IMG]http://4.bp.blogspot.com/_8INwxK7N7U0/TE-jUpt8gbI/AAAAAAAAEb8/lphU4a0eNX4/s1600/Tapas.png[/IMG][/align]


[align=center][spoiler]
[URL="https://picasaweb.google.com/lh/photo/HQHbdm3fcd5H_g82FLolqy2OX3YDMug3w2Tb4El_uXI?feat=embedwebsite"][IMG]https://lh6.googleusercontent.com/-GPyM4_lQjaE/Uigz4zteh-I/AAAAAAAAQns/V8CX7gt39OE/s144/Back.png[/IMG][/URL] [URL="https://picasaweb.google.com/lh/photo/s6JukZkTh9Ba4qJaKi4zSC2OX3YDMug3w2Tb4El_uXI?feat=embedwebsite"][IMG]https://lh4.googleusercontent.com/-iCxcLq4b_lM/Uig0WDmD6uI/AAAAAAAAQn0/yio7PQhytWc/s144/Booklet%2520-01-.png[/IMG][/URL] [URL="https://picasaweb.google.com/lh/photo/_8AlJVTZCKDMMZ6J2PqYci2OX3YDMug3w2Tb4El_uXI?feat=embedwebsite"][IMG]https://lh3.googleusercontent.com/-ZPUwDiIInZo/Uig0kDqKFqI/AAAAAAAAQn8/8KY_rpRAEUo/s144/Booklet%2520-02-.png[/IMG][/URL] [URL="https://picasaweb.google.com/lh/photo/EdgyH-x4uQF7oITyMH4Bay2OX3YDMug3w2Tb4El_uXI?feat=embedwebsite"][IMG]https://lh6.googleusercontent.com/-fVEBpSVilX4/Uig1EFQN1eI/AAAAAAAAQoI/KNX1lr7xXgw/s144/Booklet%2520-03-.png[/IMG][/URL] [URL="https://picasaweb.google.com/lh/photo/JHahilO2TaOCWNAlqx34Hy2OX3YDMug3w2Tb4El_uXI?feat=embedwebsite"][IMG]https://lh3.googleusercontent.com/-_3IfgZ6dcPE/Uig1L3jDRPI/AAAAAAAAQoY/WmAN-LW15T8/s144/Booklet%2520-04-.png[/IMG][/URL] [URL="https://picasaweb.google.com/lh/photo/wjWVgl_a9aqccOR5s_i_US2OX3YDMug3w2Tb4El_uXI?feat=embedwebsite"][IMG]https://lh3.googleusercontent.com/-n-29wLemr5Q/Uig1GM26UdI/AAAAAAAAQoQ/3FJ80qJYO3E/s144/CD.png[/IMG][/URL] [URL="https://picasaweb.google.com/lh/photo/U9Yj1BjJHia6uiDGZh0xXy2OX3YDMug3w2Tb4El_uXI?feat=embedwebsite"][IMG]https://lh3.googleusercontent.com/-QrEcWZNdyRU/Uig1gMy-W0I/AAAAAAAAQog/AkSQasrvHQc/s144/Front.jpg[/IMG][/URL]
[/spoiler][/align]


[align=center][IMG]http://1.bp.blogspot.com/_8INwxK7N7U0/TE-kbHbz5-I/AAAAAAAAEcE/xrUKuFLvgww/s1600/Temas+Online.png[/IMG][/align]


[align=center][youtube]eo7iwlMFPrM[/youtube][/align]

[align=center][youtube]zuR5TYI5Qkg[/youtube][/align]

[align=center][youtube]MVTkbCCl3-I[/youtube][/align]

[align=center][youtube]mjeWKssl8Ic[/youtube][/align]

[align=center][youtube]up0swWdzr24[/youtube][/align]


[align=center][IMG]http://3.bp.blogspot.com/_8INwxK7N7U0/TE-jTmMzllI/AAAAAAAAEbk/6SgA1Qtejpw/s1600/Descarga.png[/IMG][/align]


[hide][align=center][url=http://adf.ly/VADGH][b][size=14][color=#00FF00]DOWNLOAD [MP3][/color][/size][/b][/url][/align][/hide]


[hide][align=center][url=http://adf.ly/VADIO][b][size=14][color=#00FF00]DOWNLOAD [FLAC][/color][/size][/b][/url][/align][/hide]
 



 
Mortiferus Enviar mensaje privado Enviar correo al usuario
Volver arribaPágina inferior
Mostrar mensajes anteriores:    
 

Publicar nuevo tema  Responder al tema  Página 1 de 1
 


Ocultar¿Este tema fue útil?

 

Elegir valoración:                       

Media de valoración Valoración mínima Valoración máxima Número de valoraciones
9.50 9 10 2
Compartir este tema
Correo a un amigo Facebook Twitter Windows Live Favorites MySpace del.icio.us Digg SlashDot google.com LinkedIn StumbleUpon Blogmarks Diigo reddit.com Blinklist co.mments.com
technorati.com DIGG ITA linkagogo.com meneame.net netscape.com newsvine.com yahoo.com Fai Informazione Ok Notizie Segnalo Bookmark IT fark.com feedmelinks.com spurl.net
 

Usuarios navegando en este tema: 0 registrados, 0 ocultos y 0 invitados
Usuarios registrados conectados: Ninguno


 
Lista de permisos
No puede crear mensajes
No puede responder temas
No puede editar sus mensajes
No puede borrar sus mensajes
No puede votar en encuestas
No puede adjuntar archivos
No puede descargar archivos
No puede publicar eventos en el calendario


 


  

 

  cron