Publicar nuevo tema  Responder al tema 
Página 1 de 1
 
 
From Oblivion (CR) - Tecnicapocalipse (Ep 2009) [FLAC]
Autor Mensaje
Responder citando   Descargar mensaje 
Mensaje From Oblivion (CR) - Tecnicapocalipse (Ep 2009) [FLAC] 
 
[align=center][img]http://i.imgur.com/5DF8Ll.jpg[/img][/align]

    Tecnicapocalipse
    War Face Painted
    I’m The Enemy
    Atrocious Atrophies

Death/Thrash Metal
FLAC+CUE+LOG+Covers
LOG:
[quote]Exact Audio Copy V1.0 beta 1 from 15. November 2010

EAC extraction logfile from 30. August 2011, 9:36

From Oblivion / Tecnicapocalipse

Used drive : HL-DT-STDVD-RAM GH22LP20 Adapter: 2 ID: 0

Read mode : Secure
Utilize accurate stream : Yes
Defeat audio cache : No
Make use of C2 pointers : No

Combined read/write offset correction : 0
Overread into Lead-In and Lead-Out : No
Fill up missing offset samples with silence : Yes
Delete leading and trailing silent blocks : No
Null samples used in CRC calculations : Yes
Used interface : Native Win32 interface for Win NT & 2000

Used output format : User Defined Encoder
Selected bitrate : 896 kBit/s
Quality : High
Add ID3 tag : No
Command line compressor : D:\Archivos de programa\Exact Audio Copy\FLAC\FLAC.EXE
Additional command line options : -6 -V -T "ARTIST=%a" -T "TITLE=%t" -T "ALBUM=%g" -T "DATE=%y" -T "TRACKNUMBER=%n" -T "GENRE=%m" -T "COMMENT=%e" %j--picture="%i"%j %s -o %d


TOC of the extracted CD

Track | Start | Length | Start sector | End sector
---------------------------------------------------------
1 | 0:00.00 | 5:15.04 | 0 | 23628
2 | 5:15.04 | 5:30.42 | 23629 | 48420
3 | 10:45.46 | 4:04.59 | 48421 | 66779
4 | 14:50.30 | 4:50.15 | 66780 | 88544


Range status and errors

Selected range

Filename N:\Musica\From Oblivion - Tecnicapocalipse\From Oblivion - Tecnicapocalipse.wav

Peak level 100.0 %
Extraction speed 0.8 X
Range quality 100.0 %
Copy CRC 5875C6AD
Copy OK

No errors occurred

End of status report[/quote]

[hide]http://www.megaupload.com/?d=GDGTY7PA[/hide]
 



 
eva18 Enviar mensaje privado
Volver arribaPágina inferior
Mostrar mensajes anteriores:    
 

Publicar nuevo tema  Responder al tema  Página 1 de 1
 


Ocultar¿Este tema fue útil?
Compartir este tema
Correo a un amigo Facebook Twitter Windows Live Favorites MySpace del.icio.us Digg SlashDot google.com LinkedIn StumbleUpon Blogmarks Diigo reddit.com Blinklist co.mments.com
technorati.com DIGG ITA linkagogo.com meneame.net netscape.com newsvine.com yahoo.com Fai Informazione Ok Notizie Segnalo Bookmark IT fark.com feedmelinks.com spurl.net
 

Usuarios navegando en este tema: 0 registrados, 0 ocultos y 0 invitados
Usuarios registrados conectados: Ninguno


 
Lista de permisos
No puede crear mensajes
No puede responder temas
No puede editar sus mensajes
No puede borrar sus mensajes
No puede votar en encuestas
No puede adjuntar archivos
No puede descargar archivos
No puede publicar eventos en el calendario


 


  

 

  cron