Publicar nuevo tema  Responder al tema 
Página 1 de 1
 
 
From Oblivion (CR) - Codified Passion (2010) [FLAC]
Autor Mensaje
Responder citando   Descargar mensaje  
Mensaje From Oblivion (CR) - Codified Passion (2010) [FLAC] 
 
[align=center][img]http://i.imgur.com/cnmWbl.jpg[/img][/align]

1. I'm The Enemy
2. For Zarnoff
3. War Face Painted
4. Serial Killing
5. Turning Black
6. I'm Already Dead
7. Emperor
8. Atrocious Atrophies
9. Tecnicapocalipse

FLAC+CUE+LOG+Covers
LOG[spoiler]Exact Audio Copy V1.0 beta 1 from 15. November 2010

EAC extraction logfile from 30. August 2011, 10:03

From Oblivion / Codified Passion

Used drive : HL-DT-STDVD-RAM GH22LP20 Adapter: 2 ID: 0

Read mode : Secure
Utilize accurate stream : Yes
Defeat audio cache : No
Make use of C2 pointers : No

Combined read/write offset correction : 0
Overread into Lead-In and Lead-Out : No
Fill up missing offset samples with silence : Yes
Delete leading and trailing silent blocks : No
Null samples used in CRC calculations : Yes
Used interface : Native Win32 interface for Win NT & 2000

Used output format : User Defined Encoder
Selected bitrate : 896 kBit/s
Quality : High
Add ID3 tag : No
Command line compressor : D:\Archivos de programa\Exact Audio Copy\FLAC\FLAC.EXE
Additional command line options : -6 -V -T "ARTIST=%a" -T "TITLE=%t" -T "ALBUM=%g" -T "DATE=%y" -T "TRACKNUMBER=%n" -T "GENRE=%m" -T "COMMENT=%e" %j--picture="%i"%j %s -o %d


TOC of the extracted CD

Track | Start | Length | Start sector | End sector
---------------------------------------------------------
1 | 0:00.00 | 4:03.06 | 0 | 18230
2 | 4:03.06 | 7:19.73 | 18231 | 51228
3 | 11:23.04 | 5:28.17 | 51229 | 75845
4 | 16:51.21 | 4:57.39 | 75846 | 98159
5 | 21:48.60 | 3:41.64 | 98160 | 114798
6 | 25:30.49 | 4:51.13 | 114799 | 136636
7 | 30:21.62 | 7:26.18 | 136637 | 170104
8 | 37:48.05 | 4:50.67 | 170105 | 191921
9 | 42:38.72 | 5:14.48 | 191922 | 215519


Range status and errors

Selected range

Filename N:\Musica\From Oblivion - Codified Passion\From Oblivion - Codified Passion.wav

Peak level 100.0 %
Extraction speed 0.4 X
Range quality 100.0 %
Copy CRC 318AB413
Copy OK

No errors occurred

End of status report [/spoiler]

Descargar FLAC
[hide]http://www.megaupload.com/?d=SV8XDFJT[/hide]

Descargar MP3
[hide]http://www.megaupload.com/?d=06PLPP2D[/hide]
 



 
última edición por eva18 el Mie 07 Sep, 2011 12:51; editado 1 vez 
eva18 Enviar mensaje privado
Volver arribaPágina inferior
Responder citando   Descargar mensaje  
Mensaje Re: From Oblivion (CR) - Codified Passion (2010) [FLAC] 
 
que mae :) tuanis?!! mae, no podrias subir de nuevo este album, pero en mp3?? se le agradeceria un pichazo!!! :) saludos!!
 



 
AliceInHell Enviar mensaje privado
Volver arribaPágina inferior
Mostrar mensajes anteriores:    
 

Publicar nuevo tema  Responder al tema  Página 1 de 1
 


Ocultar¿Este tema fue útil?
Compartir este tema
Correo a un amigo Facebook Twitter Windows Live Favorites MySpace del.icio.us Digg SlashDot google.com LinkedIn StumbleUpon Blogmarks Diigo reddit.com Blinklist co.mments.com
technorati.com DIGG ITA linkagogo.com meneame.net netscape.com newsvine.com yahoo.com Fai Informazione Ok Notizie Segnalo Bookmark IT fark.com feedmelinks.com spurl.net
 

Usuarios navegando en este tema: 0 registrados, 0 ocultos y 0 invitados
Usuarios registrados conectados: Ninguno


 
Lista de permisos
No puede crear mensajes
No puede responder temas
No puede editar sus mensajes
No puede borrar sus mensajes
No puede votar en encuestas
No puede adjuntar archivos
No puede descargar archivos
No puede publicar eventos en el calendario