Publicar nuevo tema  Responder al tema 
Página 1 de 1
 
 
Deformity (CR) - Obssessed With Death (Demo 2010 CD-R PRO) [FLAC]
Autor Mensaje
Responder citando   Descargar mensaje 
Mensaje Deformity (CR) - Obssessed With Death (Demo 2010 CD-R PRO) [FLAC] 
 
[align=center][img]http://i.imgur.com/HOfpql.jpg[/img][/align]

Visions of Desolation    
Faces of Death    
Consumed by the Grave    
Freddy Krueger (Eternal Nightmare)
Brain Deformity    
Ritual Carnage
Incineration of Zombies

[quote]Exact Audio Copy V1.0 beta 1 from 15. November 2010

EAC extraction logfile from 29. August 2011, 16:42

Deformity / Obssessed With Dead

Used drive  : HL-DT-STDVD-RAM GH22LP20   Adapter: 2  ID: 0

Read mode               : Secure
Utilize accurate stream : Yes
Defeat audio cache      : No
Make use of C2 pointers : No

Combined read/write offset correction       : 0
Overread into Lead-In and Lead-Out          : No
Fill up missing offset samples with silence : Yes
Delete leading and trailing silent blocks   : No
Null samples used in CRC calculations       : Yes
Used interface                              : Native Win32 interface for Win NT & 2000

Used output format              : User Defined Encoder
Selected bitrate                : 896 kBit/s
Quality                         : High
Add ID3 tag                     : No
Command line compressor         : D:\Archivos de programa\Exact Audio Copy\FLAC\FLAC.EXE
Additional command line options : -6 -V -T "ARTIST=%a" -T "TITLE=%t" -T "ALBUM=%g" -T "DATE=%y" -T "TRACKNUMBER=%n" -T "GENRE=%m" -T "COMMENT=%e" %j--picture="%i"%j %s -o %d


TOC of the extracted CD

     Track |   Start  |  Length  | Start sector | End sector
    ---------------------------------------------------------
        1  |  0:00.00 |  1:46.68 |         0    |     8017  
        2  |  1:46.68 |  2:23.50 |      8018    |    18792  
        3  |  4:10.43 |  2:52.60 |     18793    |    31752  
        4  |  7:03.28 |  1:34.55 |     31753    |    38857  
        5  |  8:38.08 |  2:52.68 |     38858    |    51825  
        6  | 11:31.01 |  2:10.64 |     51826    |    61639  
        7  | 13:41.65 |  2:25.67 |     61640    |    72581  


Range status and errors

Selected range

     Filename N:\Musica\Deformity - Obssessed With Death\Deformity - Obssessed With Dead.wav

     Peak level 93.9 %
     Extraction speed 0.5 X
     Range quality 100.0 %
     Copy CRC F440DDB0
     Copy OK

No errors occurred

End of status report
[/quote]


FLAC+Covers+CUE+LOG

[hide]http://www.megaupload.com/?d=PV9MWZYD[/hide]
 



 
eva18 Enviar mensaje privado
Volver arribaPágina inferior
Mostrar mensajes anteriores:    
 

Publicar nuevo tema  Responder al tema  Página 1 de 1
 


Ocultar¿Este tema fue útil?
Compartir este tema
Correo a un amigo Facebook Twitter Windows Live Favorites MySpace del.icio.us Digg SlashDot google.com LinkedIn StumbleUpon Blogmarks Diigo reddit.com Blinklist co.mments.com
technorati.com DIGG ITA linkagogo.com meneame.net netscape.com newsvine.com yahoo.com Fai Informazione Ok Notizie Segnalo Bookmark IT fark.com feedmelinks.com spurl.net
 

Usuarios navegando en este tema: 0 registrados, 0 ocultos y 0 invitados
Usuarios registrados conectados: Ninguno


 
Lista de permisos
No puede crear mensajes
No puede responder temas
No puede editar sus mensajes
No puede borrar sus mensajes
No puede votar en encuestas
No puede adjuntar archivos
No puede descargar archivos
No puede publicar eventos en el calendario