Publicar nuevo tema  Responder al tema 
Página 1 de 1
 
 
Alcest - Souvenirs D'un Autre Monde (2007) [FLAC]
Autor Mensaje
Responder citando   Descargar mensaje  
Mensaje Alcest - Souvenirs D'un Autre Monde (2007) [FLAC] 
 
[align=center][img]http://1.bp.blogspot.com/-GzCyb7VL3Kg/UbY0KlqGpHI/AAAAAAAAMdg/uvciXIkBfxg/s640/Front.jpg[/img][/align]


[align=center][IMG]http://4.bp.blogspot.com/_8INwxK7N7U0/TE-jTGFSriI/AAAAAAAAEbc/2GubBBqPRM4/s1600/Datos.png[/IMG][/align]


[b]Release date: August 3rd, 2007

Length: 41:23

Genre: Black Metal, Post-Metal, Shoegaze

Country: France

Engineering, Photography: Neige

Photography (cover): Rachel Robinson

Photography (sea): Andy Julia

Layout, Photography: Fursy Teyssier

NOTES:

- The album title translates to "Memories Of Another World"

- Songs titles translated as follows: Printemps Émeraude (Emerald Spring), Souvenirs D'un Autre Monde (Memories Of Another World), Les Iris (The Iris), Ciel Errant (Errant Sky) and Sur L'Autre Rive Je T'Attendrai (On The Other Shore I Will Wait For You)

- Tir Nan Og is a reference to the Irish phrase "Tír nan Óg", usually translated as Land of Eternal Youth, a realm in Irish mythology which was the final resting place of the Tuatha Dé Danann

Line-Up:

Neige - All Instruments, Vocals

Guest/Session:

Audrey Sylvain - Vocals on Sur L'Autre Rive Je T'Attendrai[/b]


[align=center][IMG]http://1.bp.blogspot.com/_8INwxK7N7U0/TE-jTyqkKMI/AAAAAAAAEbs/k_tSZwWo4Jc/s1600/Informaci%C3%B3n.png[/IMG][/align]


[code linenumbers=false]Format : FLAC
Format/Info : Free Lossless Audio Codec
Duration : 41mn 22s
Bit rate mode : Variable
Bit rate : 972 Kbps
Channel(s) : 2 channels
Sampling rate : 44.1 KHz
Bit depth : 16 bits
Replay gain : -9.28 dB
Replay gain peak : 1.000000
Stream size : 288 MiB (100%)
Writing library : libFLAC 1.1.2 (UTC 2005-02-05)
[/code]


[align=center][IMG]http://4.bp.blogspot.com/_8INwxK7N7U0/TE-jUJHW5BI/AAAAAAAAEb0/einX0ObWsLA/s1600/Lista.png[/IMG][/align]


[cell class=spoiler][b][align=center][color=red]1.    Printemps Émeraude     (07:19)
2.    Souvenirs D'un Autre Monde                        (06:08)
3.    Les Iris     (07:41)
4.    Ciel Errant     (07:12)
5.    Sur L'Autre Rive Je T'Attendrai     (06:50)
6.    Tir Nan Og     (06:10)[/color][/align][/b][/cell]


[align=center][IMG]http://4.bp.blogspot.com/_8INwxK7N7U0/TE-jUpt8gbI/AAAAAAAAEb8/lphU4a0eNX4/s1600/Tapas.png[/IMG][/align]


[align=center][spoiler]
[URL="https://picasaweb.google.com/lh/photo/DH6hEOaqgSqtEcxK45wWSVKPyEHLmZ2rlm2x6M4jfmM?feat=embedwebsite"][IMG]https://lh3.googleusercontent.com/-GzCyb7VL3Kg/UbY0KlqGpHI/AAAAAAAAMdk/CiWlcTkPOfI/s144/Front.jpg[/IMG][/URL] [URL="https://picasaweb.google.com/lh/photo/9urzKiUso2p0iv5MtniOH1KPyEHLmZ2rlm2x6M4jfmM?feat=embedwebsite"][IMG]https://lh3.googleusercontent.com/-xpQL_ytGFEY/UbYzIwcRl1I/AAAAAAAAMdI/FCaBB3Wx-Vk/s144/Front.jpg[/IMG][/URL] [URL="https://picasaweb.google.com/lh/photo/Vi0u7SPMubdw-d-5oRWuWlKPyEHLmZ2rlm2x6M4jfmM?feat=embedwebsite"][IMG]https://lh6.googleusercontent.com/-Q6eRfPYiCWA/UbYzNBlr58I/AAAAAAAAMdY/ib1ydUvrRM4/s144/Digipack.jpg[/IMG][/URL] [URL="https://picasaweb.google.com/lh/photo/xqkz_gJp7iBCksLsmms1UlKPyEHLmZ2rlm2x6M4jfmM?feat=embedwebsite"][IMG]https://lh4.googleusercontent.com/-ltbTJjSQ6pE/UbYzJNWJpSI/AAAAAAAAMdQ/p0rQVdgbqE8/s144/CD.jpg[/IMG][/URL] [URL="https://picasaweb.google.com/lh/photo/E-t89vJ-X6_alWbHSgKPHVKPyEHLmZ2rlm2x6M4jfmM?feat=embedwebsite"][IMG]https://lh4.googleusercontent.com/-_QeITCbyVY0/UbYzFNxJnXI/AAAAAAAAMdA/zCZlz8Ua0Ck/s144/Booklet%2520%25284%2529.jpg[/IMG][/URL] [URL="https://picasaweb.google.com/lh/photo/9IZjUIhL7gOXLixbXPEbqFKPyEHLmZ2rlm2x6M4jfmM?feat=embedwebsite"][IMG]https://lh4.googleusercontent.com/-BwAp0aXm-Gg/UbYy5s1LOHI/AAAAAAAAMcw/BoQeJcMkn1w/s144/Booklet%2520%25283%2529.jpg[/IMG][/URL] [URL="https://picasaweb.google.com/lh/photo/vu0Nb1Dioe05NUgmUlE2-FKPyEHLmZ2rlm2x6M4jfmM?feat=embedwebsite"][IMG]https://lh4.googleusercontent.com/-ArLO5ab1j4o/UbYy3zrGf1I/AAAAAAAAMco/QiAoQkU-uOU/s144/Booklet%2520%25282%2529.jpg[/IMG][/URL] [URL="https://picasaweb.google.com/lh/photo/kuOcQJvm1D-Z-6XV42t781KPyEHLmZ2rlm2x6M4jfmM?feat=embedwebsite"][IMG]https://lh5.googleusercontent.com/-7ZAsCX5k06g/UbYy7APe0cI/AAAAAAAAMc4/sessuXDOXZc/s144/Booklet%2520%25281%2529.jpg[/IMG][/URL]
[/spoiler][/align]


[align=center][IMG]http://1.bp.blogspot.com/_8INwxK7N7U0/TE-kbHbz5-I/AAAAAAAAEcE/xrUKuFLvgww/s1600/Temas+Online.png[/IMG][/align]


[align=center][youtube]4PmCb9OiFYQ[/youtube][/align]


[align=center][IMG]http://3.bp.blogspot.com/_8INwxK7N7U0/TE-jTmMzllI/AAAAAAAAEbk/6SgA1Qtejpw/s1600/Descarga.png[/IMG][/align]


[hide][align=center][url=http://www.relink.us/view.php?id=537202d1a82e50147d4a64f076d5fa][b][size=14][color=#00FF00]DOWNLOAD[/color][/size][/b][/url][/align][/hide]
 



 
Mortiferus Enviar mensaje privado Enviar correo al usuario
Volver arribaPágina inferior
Responder citando   Descargar mensaje  
Mensaje Re: Alcest - Souvenirs D'un Autre Monde (2007) [FLAC] 
 
  
 



 
xalodabassist Enviar mensaje privado
Volver arribaPágina inferior
Responder citando   Descargar mensaje  
Mensaje Re: Alcest - Souvenirs D'un Autre Monde (2007) [FLAC] 
 
ty  
 



 
i58 Enviar mensaje privado
Volver arribaPágina inferior
Responder citando   Descargar mensaje  
Mensaje Re: Alcest - Souvenirs D'un Autre Monde (2007) [FLAC] 
 
gracias
 



 
guillermoantonio Enviar mensaje privado
Volver arribaPágina inferior
Responder citando   Descargar mensaje  
Mensaje Re: Alcest - Souvenirs D'un Autre Monde (2007) [FLAC] 
 
[quote user="Mortiferus" post="220044"][align=center][img]http://1.bp.blogspot.com/-GzCyb7VL3Kg/UbY0KlqGpHI/AAAAAAAAMdg/uvciXIkBfxg/s640/Front.jpg[/img][/align]


[align=center][IMG]http://4.bp.blogspot.com/_8INwxK7N7U0/TE-jTGFSriI/AAAAAAAAEbc/2GubBBqPRM4/s1600/Datos.png[/IMG][/align]


[b]Release date: August 3rd, 2007

Length: 41:23

Genre: Black Metal, Post-Metal, Shoegaze

Country: France

Engineering, Photography: Neige

Photography (cover): Rachel Robinson

Photography (sea): Andy Julia

Layout, Photography: Fursy Teyssier

NOTES:

- The album title translates to "Memories Of Another World"

- Songs titles translated as follows: Printemps Émeraude (Emerald Spring), Souvenirs D'un Autre Monde (Memories Of Another World), Les Iris (The Iris), Ciel Errant (Errant Sky) and Sur L'Autre Rive Je T'Attendrai (On The Other Shore I Will Wait For You)

- Tir Nan Og is a reference to the Irish phrase "Tír nan Óg", usually translated as Land of Eternal Youth, a realm in Irish mythology which was the final resting place of the Tuatha Dé Danann

Line-Up:

Neige - All Instruments, Vocals

Guest/Session:

Audrey Sylvain - Vocals on Sur L'Autre Rive Je T'Attendrai[/b]


[align=center][IMG]http://1.bp.blogspot.com/_8INwxK7N7U0/TE-jTyqkKMI/AAAAAAAAEbs/k_tSZwWo4Jc/s1600/Informaci%C3%B3n.png[/IMG][/align]


[code linenumbers=false]Format : FLAC
Format/Info : Free Lossless Audio Codec
Duration : 41mn 22s
Bit rate mode : Variable
Bit rate : 972 Kbps
Channel(s) : 2 channels
Sampling rate : 44.1 KHz
Bit depth : 16 bits
Replay gain : -9.28 dB
Replay gain peak : 1.000000
Stream size : 288 MiB (100%)
Writing library : libFLAC 1.1.2 (UTC 2005-02-05)
[/code]


[align=center][IMG]http://4.bp.blogspot.com/_8INwxK7N7U0/TE-jUJHW5BI/AAAAAAAAEb0/einX0ObWsLA/s1600/Lista.png[/IMG][/align]


[cell class=spoiler][b][align=center][color=red]1.    Printemps Émeraude     (07:19)
2.    Souvenirs D'un Autre Monde                        (06:08)
3.    Les Iris     (07:41)
4.    Ciel Errant     (07:12)
5.    Sur L'Autre Rive Je T'Attendrai     (06:50)
6.    Tir Nan Og     (06:10)[/color][/align][/b][/cell]


[align=center][IMG]http://4.bp.blogspot.com/_8INwxK7N7U0/TE-jUpt8gbI/AAAAAAAAEb8/lphU4a0eNX4/s1600/Tapas.png[/IMG][/align]


[align=center][spoiler]
[URL="https://picasaweb.google.com/lh/photo/DH6hEOaqgSqtEcxK45wWSVKPyEHLmZ2rlm2x6M4jfmM?feat=embedwebsite"][IMG]https://lh3.googleusercontent.com/-GzCyb7VL3Kg/UbY0KlqGpHI/AAAAAAAAMdk/CiWlcTkPOfI/s144/Front.jpg[/IMG][/URL] [URL="https://picasaweb.google.com/lh/photo/9urzKiUso2p0iv5MtniOH1KPyEHLmZ2rlm2x6M4jfmM?feat=embedwebsite"][IMG]https://lh3.googleusercontent.com/-xpQL_ytGFEY/UbYzIwcRl1I/AAAAAAAAMdI/FCaBB3Wx-Vk/s144/Front.jpg[/IMG][/URL] [URL="https://picasaweb.google.com/lh/photo/Vi0u7SPMubdw-d-5oRWuWlKPyEHLmZ2rlm2x6M4jfmM?feat=embedwebsite"][IMG]https://lh6.googleusercontent.com/-Q6eRfPYiCWA/UbYzNBlr58I/AAAAAAAAMdY/ib1ydUvrRM4/s144/Digipack.jpg[/IMG][/URL] [URL="https://picasaweb.google.com/lh/photo/xqkz_gJp7iBCksLsmms1UlKPyEHLmZ2rlm2x6M4jfmM?feat=embedwebsite"][IMG]https://lh4.googleusercontent.com/-ltbTJjSQ6pE/UbYzJNWJpSI/AAAAAAAAMdQ/p0rQVdgbqE8/s144/CD.jpg[/IMG][/URL] [URL="https://picasaweb.google.com/lh/photo/E-t89vJ-X6_alWbHSgKPHVKPyEHLmZ2rlm2x6M4jfmM?feat=embedwebsite"][IMG]https://lh4.googleusercontent.com/-_QeITCbyVY0/UbYzFNxJnXI/AAAAAAAAMdA/zCZlz8Ua0Ck/s144/Booklet%2520%25284%2529.jpg[/IMG][/URL] [URL="https://picasaweb.google.com/lh/photo/9IZjUIhL7gOXLixbXPEbqFKPyEHLmZ2rlm2x6M4jfmM?feat=embedwebsite"][IMG]https://lh4.googleusercontent.com/-BwAp0aXm-Gg/UbYy5s1LOHI/AAAAAAAAMcw/BoQeJcMkn1w/s144/Booklet%2520%25283%2529.jpg[/IMG][/URL] [URL="https://picasaweb.google.com/lh/photo/vu0Nb1Dioe05NUgmUlE2-FKPyEHLmZ2rlm2x6M4jfmM?feat=embedwebsite"][IMG]https://lh4.googleusercontent.com/-ArLO5ab1j4o/UbYy3zrGf1I/AAAAAAAAMco/QiAoQkU-uOU/s144/Booklet%2520%25282%2529.jpg[/IMG][/URL] [URL="https://picasaweb.google.com/lh/photo/kuOcQJvm1D-Z-6XV42t781KPyEHLmZ2rlm2x6M4jfmM?feat=embedwebsite"][IMG]https://lh5.googleusercontent.com/-7ZAsCX5k06g/UbYy7APe0cI/AAAAAAAAMc4/sessuXDOXZc/s144/Booklet%2520%25281%2529.jpg[/IMG][/URL]
[/spoiler][/align]


[align=center][IMG]http://1.bp.blogspot.com/_8INwxK7N7U0/TE-kbHbz5-I/AAAAAAAAEcE/xrUKuFLvgww/s1600/Temas+Online.png[/IMG][/align]


[align=center][youtube]4PmCb9OiFYQ[/youtube][/align]


[align=center][IMG]http://3.bp.blogspot.com/_8INwxK7N7U0/TE-jTmMzllI/AAAAAAAAEbk/6SgA1Qtejpw/s1600/Descarga.png[/IMG][/align]


[hide]Citar mensaje ocultado, si todavía está oculto.[/hide][/quote]
 



 
otargos Enviar mensaje privado
Volver arribaPágina inferior
Responder citando   Descargar mensaje  
Mensaje Re: Alcest - Souvenirs D'un Autre Monde (2007) [FLAC] 
 
[quote user="otargos" post="252821"]:gracias: [quote user="Mortiferus" post="220044"][align=center][img]http://1.bp.blogspot.com/-GzCyb7VL3Kg/UbY0KlqGpHI/AAAAAAAAMdg/uvciXIkBfxg/s640/Front.jpg[/img][/align]


[align=center][IMG]http://4.bp.blogspot.com/_8INwxK7N7U0/TE-jTGFSriI/AAAAAAAAEbc/2GubBBqPRM4/s1600/Datos.png[/IMG][/align]


[b]Release date: August 3rd, 2007

Length: 41:23

Genre: Black Metal, Post-Metal, Shoegaze

Country: France

Engineering, Photography: Neige

Photography (cover): Rachel Robinson

Photography (sea): Andy Julia

Layout, Photography: Fursy Teyssier

NOTES:

- The album title translates to "Memories Of Another World"

- Songs titles translated as follows: Printemps Émeraude (Emerald Spring), Souvenirs D'un Autre Monde (Memories Of Another World), Les Iris (The Iris), Ciel Errant (Errant Sky) and Sur L'Autre Rive Je T'Attendrai (On The Other Shore I Will Wait For You)

- Tir Nan Og is a reference to the Irish phrase "Tír nan Óg", usually translated as Land of Eternal Youth, a realm in Irish mythology which was the final resting place of the Tuatha Dé Danann

Line-Up:

Neige - All Instruments, Vocals

Guest/Session:

Audrey Sylvain - Vocals on Sur L'Autre Rive Je T'Attendrai[/b]


[align=center][IMG]http://1.bp.blogspot.com/_8INwxK7N7U0/TE-jTyqkKMI/AAAAAAAAEbs/k_tSZwWo4Jc/s1600/Informaci%C3%B3n.png[/IMG][/align]


[code linenumbers=false]Format : FLAC
Format/Info : Free Lossless Audio Codec
Duration : 41mn 22s
Bit rate mode : Variable
Bit rate : 972 Kbps
Channel(s) : 2 channels
Sampling rate : 44.1 KHz
Bit depth : 16 bits
Replay gain : -9.28 dB
Replay gain peak : 1.000000
Stream size : 288 MiB (100%)
Writing library : libFLAC 1.1.2 (UTC 2005-02-05)
[/code]


[align=center][IMG]http://4.bp.blogspot.com/_8INwxK7N7U0/TE-jUJHW5BI/AAAAAAAAEb0/einX0ObWsLA/s1600/Lista.png[/IMG][/align]


[cell class=spoiler][b][align=center][color=red]1.    Printemps Émeraude     (07:19)
2.    Souvenirs D'un Autre Monde                        (06:08)
3.    Les Iris     (07:41)
4.    Ciel Errant     (07:12)
5.    Sur L'Autre Rive Je T'Attendrai     (06:50)
6.    Tir Nan Og     (06:10)[/color][/align][/b][/cell]


[align=center][IMG]http://4.bp.blogspot.com/_8INwxK7N7U0/TE-jUpt8gbI/AAAAAAAAEb8/lphU4a0eNX4/s1600/Tapas.png[/IMG][/align]


[align=center][spoiler]
[URL="https://picasaweb.google.com/lh/photo/DH6hEOaqgSqtEcxK45wWSVKPyEHLmZ2rlm2x6M4jfmM?feat=embedwebsite"][IMG]https://lh3.googleusercontent.com/-GzCyb7VL3Kg/UbY0KlqGpHI/AAAAAAAAMdk/CiWlcTkPOfI/s144/Front.jpg[/IMG][/URL] [URL="https://picasaweb.google.com/lh/photo/9urzKiUso2p0iv5MtniOH1KPyEHLmZ2rlm2x6M4jfmM?feat=embedwebsite"][IMG]https://lh3.googleusercontent.com/-xpQL_ytGFEY/UbYzIwcRl1I/AAAAAAAAMdI/FCaBB3Wx-Vk/s144/Front.jpg[/IMG][/URL] [URL="https://picasaweb.google.com/lh/photo/Vi0u7SPMubdw-d-5oRWuWlKPyEHLmZ2rlm2x6M4jfmM?feat=embedwebsite"][IMG]https://lh6.googleusercontent.com/-Q6eRfPYiCWA/UbYzNBlr58I/AAAAAAAAMdY/ib1ydUvrRM4/s144/Digipack.jpg[/IMG][/URL] [URL="https://picasaweb.google.com/lh/photo/xqkz_gJp7iBCksLsmms1UlKPyEHLmZ2rlm2x6M4jfmM?feat=embedwebsite"][IMG]https://lh4.googleusercontent.com/-ltbTJjSQ6pE/UbYzJNWJpSI/AAAAAAAAMdQ/p0rQVdgbqE8/s144/CD.jpg[/IMG][/URL] [URL="https://picasaweb.google.com/lh/photo/E-t89vJ-X6_alWbHSgKPHVKPyEHLmZ2rlm2x6M4jfmM?feat=embedwebsite"][IMG]https://lh4.googleusercontent.com/-_QeITCbyVY0/UbYzFNxJnXI/AAAAAAAAMdA/zCZlz8Ua0Ck/s144/Booklet%2520%25284%2529.jpg[/IMG][/URL] [URL="https://picasaweb.google.com/lh/photo/9IZjUIhL7gOXLixbXPEbqFKPyEHLmZ2rlm2x6M4jfmM?feat=embedwebsite"][IMG]https://lh4.googleusercontent.com/-BwAp0aXm-Gg/UbYy5s1LOHI/AAAAAAAAMcw/BoQeJcMkn1w/s144/Booklet%2520%25283%2529.jpg[/IMG][/URL] [URL="https://picasaweb.google.com/lh/photo/vu0Nb1Dioe05NUgmUlE2-FKPyEHLmZ2rlm2x6M4jfmM?feat=embedwebsite"][IMG]https://lh4.googleusercontent.com/-ArLO5ab1j4o/UbYy3zrGf1I/AAAAAAAAMco/QiAoQkU-uOU/s144/Booklet%2520%25282%2529.jpg[/IMG][/URL] [URL="https://picasaweb.google.com/lh/photo/kuOcQJvm1D-Z-6XV42t781KPyEHLmZ2rlm2x6M4jfmM?feat=embedwebsite"][IMG]https://lh5.googleusercontent.com/-7ZAsCX5k06g/UbYy7APe0cI/AAAAAAAAMc4/sessuXDOXZc/s144/Booklet%2520%25281%2529.jpg[/IMG][/URL]
[/spoiler][/align]


[align=center][IMG]http://1.bp.blogspot.com/_8INwxK7N7U0/TE-kbHbz5-I/AAAAAAAAEcE/xrUKuFLvgww/s1600/Temas+Online.png[/IMG][/align]


[align=center][youtube]4PmCb9OiFYQ[/youtube][/align]


[align=center][IMG]http://3.bp.blogspot.com/_8INwxK7N7U0/TE-jTmMzllI/AAAAAAAAEbk/6SgA1Qtejpw/s1600/Descarga.png[/IMG][/align]


[hide]Citar mensaje ocultado, si todavía está oculto.[/hide][/quote][/quote]
 



 
otargos Enviar mensaje privado
Volver arribaPágina inferior
Responder citando   Descargar mensaje  
Mensaje Re: Alcest - Souvenirs D'un Autre Monde (2007) [FLAC] 
 
GRACIAS
 



 
otargos Enviar mensaje privado
Volver arribaPágina inferior
Mostrar mensajes anteriores:    
 

Publicar nuevo tema  Responder al tema  Página 1 de 1
 


Ocultar¿Este tema fue útil?

 

Elegir valoración:                       

Media de valoración Valoración mínima Valoración máxima Número de valoraciones
9.50 9 10 2
Compartir este tema
Correo a un amigo Facebook Twitter Windows Live Favorites MySpace del.icio.us Digg SlashDot google.com LinkedIn StumbleUpon Blogmarks Diigo reddit.com Blinklist co.mments.com
technorati.com DIGG ITA linkagogo.com meneame.net netscape.com newsvine.com yahoo.com Fai Informazione Ok Notizie Segnalo Bookmark IT fark.com feedmelinks.com spurl.net
 

Usuarios navegando en este tema: 0 registrados, 0 ocultos y 0 invitados
Usuarios registrados conectados: Ninguno


 
Lista de permisos
No puede crear mensajes
No puede responder temas
No puede editar sus mensajes
No puede borrar sus mensajes
No puede votar en encuestas
No puede adjuntar archivos
No puede descargar archivos
No puede publicar eventos en el calendario