[Icy Phoenix Debug] PHP Notice: in file /includes/users_online_block.php on line 74: Invalid argument supplied for foreach()
Flac/Ape :: Aerosmith - Get A Grip (1993) [WV]
 


Publicar nuevo tema  Responder al tema 
Página 1 de 1
 
 
Aerosmith - Get A Grip (1993) [WV]
Autor Mensaje
Responder citando   Descargar mensaje  
Mensaje Aerosmith - Get A Grip (1993) [WV] 
 
[align=center][img]http://2.bp.blogspot.com/-Y8IRKyya3Nk/UfgKV4DWX8I/AAAAAAAAPYs/LCiIxPT_01w/s640/Front.jpg[/img][/align]


[align=center][IMG]http://4.bp.blogspot.com/_8INwxK7N7U0/TE-jTGFSriI/AAAAAAAAEbc/2GubBBqPRM4/s1600/Datos.png[/IMG][/align]


[b]Release date: April 20th, 1993

Length: 01:05:36

Genre: Hard Rock, Blues Rock

Country: United States

Recorded: at Little Mountain Sound Studio, Vancouver, British Columbia, Canada and A&M Studios, Hollywood, Los Angeles, California, United States

Mixed: by Brendan O'Brien at Can-Am Studios, Los Angeles, California, United States

Mastered: by Greg Fulginiti at Masterdisk, New York, New York, United States

Producer: Bruce Fairbairn

Engineering: David Thoener and Ken Lomas

Engineering (additional): Ed Korengo, John Aguto and Mike Plotinkoff

Cover art: Hugh Syme

Artwork: Ed Colver

Photography (band): William Hames

Art Direction: Michael Golob

NOTES:

- Music videos were made for the songs Eat The Rich, Livin' On The Edge, Cryin', Crazy and Amazing

- Livin' On The Edge appears, amongst other media, on Guitar Hero series

- Amazing and Eat The Rich appears on Tecmo's Dead Or Alive 4

- International version -posted here- has a different tracklist

Line-Up:

Steven Tyler - Vocals (lead), Percussion (arrangements), Keyboards, Harmonica, Mandolin
Joe Perry - Vocals (backing), Guitars (lead & rhythm), Dulcimer, Vocals (lead) on Walk On Down
Brad Whitford - Guitars (lead & rhythm)
Tom Hamilton - Bass
Joey Kramer - Drums, Percussion

Guest/Session:

Ian Putz - Baritone Saxophone
Paul Baron - Trumpet
Desmond Child - Keyboards on Crazy
Bruce Fairbairn - Trumpet
Don Henley - Vocals (backing) on Amazing
Sandy Kanaeholo - Log Drums on Eat The Rich
Tom Keenlyside - Saxophone
Lenny Kravitz - Vocals (backing) on Line Up
Melvin Liufau - Log Drums on Eat The Rich
Wesey Mamea - Log Drums on Eat The Rich
Bob Rogers - Trombone
Richard Supa - Keyboards on Amazing
Liainaiala Tagaloa - Log Drums on Eat The Rich
Mapuhi T. Tekurio - Log Drums on Eat The Rich
Aladd Alationa Teofilo - Log Drums on Eat The Rich
John Webster - Keyboards[/b]


[align=center][b][font=Lucida Sans Unicode][size=14][color=#8CFF00][url=http://www.facebook.com/aerosmith]Facebook[/url] | [url=http://www.aerosmith.com/]Web Oficial[/url] | [url=http://www.myspace.com/aerosmith]MySpace[/url] | [url=http://twitter.com/Aerosmith]Twitter[/url] | [url=http://www.youtube.com/TheOfficialAerosmith]Youtube[/url][/color][/size][/font][/b][/align]



[align=center][IMG]http://1.bp.blogspot.com/_8INwxK7N7U0/TE-jTyqkKMI/AAAAAAAAEbs/k_tSZwWo4Jc/s1600/Informaci%C3%B3n.png[/IMG][/align]


[code linenumbers=false]Format : WavPack
Format profile : 4.06
Duration : 1h 5mn
Bit rate mode : Variable
Bit rate : 999 Kbps
Channel(s) : 2 channels
Sampling rate : 44.1 KHz
Bit depth : 16 bits
Compression ratio : 1.413
Stream size : 469 MiB (100%)
Encoding settings : -h -m
[/code]


[align=center][IMG]http://4.bp.blogspot.com/_8INwxK7N7U0/TE-jUJHW5BI/AAAAAAAAEb0/einX0ObWsLA/s1600/Lista.png[/IMG][/align]


[cell class=spoiler][b][align=center][color=red]1.    Intro     (00:23)
2.    Eat The Rich     (04:11)
3.    Get A Grip     (03:58)
4.    Fever     (04:15)
5.    Livin' On The Edge     (06:07)
6.    Flesh     (05:57)
7.    Walk On Down     (03:39)
8.    Shut Up And Dance     (04:56)
9.    Cryin'     (05:08)
10.    Gotta Love It     (05:58)
11.    Crazy     (05:17)
12.    Line Up     (04:03)
13.    Can't Stop Messin'     (03:31)
14.    Amazing     (05:56)
15.    Boogie Man     (02:17)[/color][/align][/b][/cell]


[align=center][IMG]http://4.bp.blogspot.com/_8INwxK7N7U0/TE-jUpt8gbI/AAAAAAAAEb8/lphU4a0eNX4/s1600/Tapas.png[/IMG][/align]


[align=center][spoiler]
[URL="https://picasaweb.google.com/lh/photo/EC4yhTWrS9oFfNxhAwmQNi2OX3YDMug3w2Tb4El_uXI?feat=embedwebsite"][IMG]https://lh6.googleusercontent.com/-x2otSKT_vTM/UfgIf94epSI/AAAAAAAAPX0/4wHvLAkg-lE/s144/Back.png[/IMG][/URL] [URL="https://picasaweb.google.com/lh/photo/4eQcyX23ZBf4gs_FRkacBC2OX3YDMug3w2Tb4El_uXI?feat=embedwebsite"][IMG]https://lh5.googleusercontent.com/-jwrn-f34LVk/UfgIzkQWBAI/AAAAAAAAPX8/KpXYYGb-6QU/s144/Booklet%2520%25281%2529.png[/IMG][/URL] [URL="https://picasaweb.google.com/lh/photo/dGleAKDY8FrrjEDhSCAVrS2OX3YDMug3w2Tb4El_uXI?feat=embedwebsite"][IMG]https://lh6.googleusercontent.com/-EYnSpxLiMP4/UfgJAg2voTI/AAAAAAAAPYE/n19890cUmOk/s144/Booklet%2520%25282%2529.png[/IMG][/URL] [URL="https://picasaweb.google.com/lh/photo/bFpOrezMgRUzlXRiikbZuS2OX3YDMug3w2Tb4El_uXI?feat=embedwebsite"][IMG]https://lh4.googleusercontent.com/-xLMO8ENN4P0/UfgJdS4iLYI/AAAAAAAAPYM/jWsrHjDfsqI/s144/Booklet%2520%25283%2529.png[/IMG][/URL] [URL="https://picasaweb.google.com/lh/photo/CfaWqQvKWlIk9Fjb-Yi9_i2OX3YDMug3w2Tb4El_uXI?feat=embedwebsite"][IMG]https://lh3.googleusercontent.com/-If8o0mtf-LI/UfgKBlvYEPI/AAAAAAAAPYc/qSWXAXVC0c4/s144/Booklet%2520%25284%2529.png[/IMG][/URL] [URL="https://picasaweb.google.com/lh/photo/2bVqmHWiwZdtbGrpfDyxey2OX3YDMug3w2Tb4El_uXI?feat=embedwebsite"][IMG]https://lh6.googleusercontent.com/-ipRSWSIEXow/UfgJzfFAtiI/AAAAAAAAPYU/7L0Oea8jL78/s144/Booklet%2520%25285%2529.png[/IMG][/URL] [URL="https://picasaweb.google.com/lh/photo/cJQVBB2aII0_wdP5d_mNFC2OX3YDMug3w2Tb4El_uXI?feat=embedwebsite"][IMG]https://lh6.googleusercontent.com/-NotekJ_JfgM/UfgKXaEgXxI/AAAAAAAAPY0/RVuAFJjp8Ds/s144/Booklet%2520%25286%2529.png[/IMG][/URL] [URL="https://picasaweb.google.com/lh/photo/R_AsP7NQ9iSkFe-hRTgWJC2OX3YDMug3w2Tb4El_uXI?feat=embedwebsite"][IMG]https://lh6.googleusercontent.com/-NADTzq9PC2o/UfgKTrQ3JcI/AAAAAAAAPYk/zbHAQ_Lt32w/s144/CD.png[/IMG][/URL] [URL="https://picasaweb.google.com/lh/photo/TjhWOlq7WSCZQf0H9hILsi2OX3YDMug3w2Tb4El_uXI?feat=embedwebsite"][IMG]https://lh6.googleusercontent.com/-Y8IRKyya3Nk/UfgKV4DWX8I/AAAAAAAAPYs/LCiIxPT_01w/s144/Front.jpg[/IMG][/URL] [URL="https://picasaweb.google.com/lh/photo/Sb7S0XJNFviUeAKA6gOSey2OX3YDMug3w2Tb4El_uXI?feat=embedwebsite"][IMG]https://lh4.googleusercontent.com/-_YaMppm_Cm8/UfgKjd1OY8I/AAAAAAAAPY8/l8Fpk64loeI/s144/Inside.png[/IMG][/URL]
[/spoiler][/align]


[align=center][IMG]http://1.bp.blogspot.com/_8INwxK7N7U0/TE-kbHbz5-I/AAAAAAAAEcE/xrUKuFLvgww/s1600/Temas+Online.png[/IMG][/align]


[align=center][youtube]NMNgbISmF4I[/youtube][/align]


[align=center][IMG]http://3.bp.blogspot.com/_8INwxK7N7U0/TE-jTmMzllI/AAAAAAAAEbk/6SgA1Qtejpw/s1600/Descarga.png[/IMG][/align]


[hide][align=center][url=http://www.relink.us/view.php?id=d82a0e6e3e097940d3c9322414ed89][b][size=14][color=#00FF00]DOWNLOAD[/color][/size][/b][/url][/align][/hide]
 



 
Mortiferus Enviar mensaje privado Enviar correo al usuario
Volver arribaPágina inferior
Responder citando   Descargar mensaje  
Mensaje Re: Aerosmith - Get A Grip (1993) [WV] 
 
[quote user="Mortiferus" post="221688"][align=center][img]http://2.bp.blogspot.com/-Y8IRKyya3Nk/UfgKV4DWX8I/AAAAAAAAPYs/LCiIxPT_01w/s640/Front.jpg[/img][/align]


[align=center][IMG]http://4.bp.blogspot.com/_8INwxK7N7U0/TE-jTGFSriI/AAAAAAAAEbc/2GubBBqPRM4/s1600/Datos.png[/IMG][/align]


[b]Release date: April 20th, 1993

Length: 01:05:36

Genre: Hard Rock, Blues Rock

Country: United States

Recorded: at Little Mountain Sound Studio, Vancouver, British Columbia, Canada and A&M Studios, Hollywood, Los Angeles, California, United States

Mixed: by Brendan O'Brien at Can-Am Studios, Los Angeles, California, United States

Mastered: by Greg Fulginiti at Masterdisk, New York, New York, United States

Producer: Bruce Fairbairn

Engineering: David Thoener and Ken Lomas

Engineering (additional): Ed Korengo, John Aguto and Mike Plotinkoff

Cover art: Hugh Syme

Artwork: Ed Colver

Photography (band): William Hames

Art Direction: Michael Golob

NOTES:

- Music videos were made for the songs Eat The Rich, Livin' On The Edge, Cryin', Crazy and Amazing

- Livin' On The Edge appears, amongst other media, on Guitar Hero series

- Amazing and Eat The Rich appears on Tecmo's Dead Or Alive 4

- International version -posted here- has a different tracklist

Line-Up:

Steven Tyler - Vocals (lead), Percussion (arrangements), Keyboards, Harmonica, Mandolin
Joe Perry - Vocals (backing), Guitars (lead & rhythm), Dulcimer, Vocals (lead) on Walk On Down
Brad Whitford - Guitars (lead & rhythm)
Tom Hamilton - Bass
Joey Kramer - Drums, Percussion

Guest/Session:

Ian Putz - Baritone Saxophone
Paul Baron - Trumpet
Desmond Child - Keyboards on Crazy
Bruce Fairbairn - Trumpet
Don Henley - Vocals (backing) on Amazing
Sandy Kanaeholo - Log Drums on Eat The Rich
Tom Keenlyside - Saxophone
Lenny Kravitz - Vocals (backing) on Line Up
Melvin Liufau - Log Drums on Eat The Rich
Wesey Mamea - Log Drums on Eat The Rich
Bob Rogers - Trombone
Richard Supa - Keyboards on Amazing
Liainaiala Tagaloa - Log Drums on Eat The Rich
Mapuhi T. Tekurio - Log Drums on Eat The Rich
Aladd Alationa Teofilo - Log Drums on Eat The Rich
John Webster - Keyboards[/b]


[align=center][b][font=Lucida Sans Unicode][size=14][color=#8CFF00][url=http://www.facebook.com/aerosmith]Facebook[/url] | [url=http://www.aerosmith.com/]Web Oficial[/url] | [url=http://www.myspace.com/aerosmith]MySpace[/url] | [url=http://twitter.com/Aerosmith]Twitter[/url] | [url=http://www.youtube.com/TheOfficialAerosmith]Youtube[/url][/color][/size][/font][/b][/align]



[align=center][IMG]http://1.bp.blogspot.com/_8INwxK7N7U0/TE-jTyqkKMI/AAAAAAAAEbs/k_tSZwWo4Jc/s1600/Informaci%C3%B3n.png[/IMG][/align]


[code linenumbers=false]Format : WavPack
Format profile : 4.06
Duration : 1h 5mn
Bit rate mode : Variable
Bit rate : 999 Kbps
Channel(s) : 2 channels
Sampling rate : 44.1 KHz
Bit depth : 16 bits
Compression ratio : 1.413
Stream size : 469 MiB (100%)
Encoding settings : -h -m
[/code]


[align=center][IMG]http://4.bp.blogspot.com/_8INwxK7N7U0/TE-jUJHW5BI/AAAAAAAAEb0/einX0ObWsLA/s1600/Lista.png[/IMG][/align]


[cell class=spoiler][b][align=center][color=red]1.    Intro     (00:23)
2.    Eat The Rich     (04:11)
3.    Get A Grip     (03:58)
4.    Fever     (04:15)
5.    Livin' On The Edge     (06:07)
6.    Flesh     (05:57)
7.    Walk On Down     (03:39)
8.    Shut Up And Dance     (04:56)
9.    Cryin'     (05:08)
10.    Gotta Love It     (05:58)
11.    Crazy     (05:17)
12.    Line Up     (04:03)
13.    Can't Stop Messin'     (03:31)
14.    Amazing     (05:56)
15.    Boogie Man     (02:17)[/color][/align][/b][/cell]


[align=center][IMG]http://4.bp.blogspot.com/_8INwxK7N7U0/TE-jUpt8gbI/AAAAAAAAEb8/lphU4a0eNX4/s1600/Tapas.png[/IMG][/align]


[align=center][spoiler]
[URL="https://picasaweb.google.com/lh/photo/EC4yhTWrS9oFfNxhAwmQNi2OX3YDMug3w2Tb4El_uXI?feat=embedwebsite"][IMG]https://lh6.googleusercontent.com/-x2otSKT_vTM/UfgIf94epSI/AAAAAAAAPX0/4wHvLAkg-lE/s144/Back.png[/IMG][/URL] [URL="https://picasaweb.google.com/lh/photo/4eQcyX23ZBf4gs_FRkacBC2OX3YDMug3w2Tb4El_uXI?feat=embedwebsite"][IMG]https://lh5.googleusercontent.com/-jwrn-f34LVk/UfgIzkQWBAI/AAAAAAAAPX8/KpXYYGb-6QU/s144/Booklet%2520%25281%2529.png[/IMG][/URL] [URL="https://picasaweb.google.com/lh/photo/dGleAKDY8FrrjEDhSCAVrS2OX3YDMug3w2Tb4El_uXI?feat=embedwebsite"][IMG]https://lh6.googleusercontent.com/-EYnSpxLiMP4/UfgJAg2voTI/AAAAAAAAPYE/n19890cUmOk/s144/Booklet%2520%25282%2529.png[/IMG][/URL] [URL="https://picasaweb.google.com/lh/photo/bFpOrezMgRUzlXRiikbZuS2OX3YDMug3w2Tb4El_uXI?feat=embedwebsite"][IMG]https://lh4.googleusercontent.com/-xLMO8ENN4P0/UfgJdS4iLYI/AAAAAAAAPYM/jWsrHjDfsqI/s144/Booklet%2520%25283%2529.png[/IMG][/URL] [URL="https://picasaweb.google.com/lh/photo/CfaWqQvKWlIk9Fjb-Yi9_i2OX3YDMug3w2Tb4El_uXI?feat=embedwebsite"][IMG]https://lh3.googleusercontent.com/-If8o0mtf-LI/UfgKBlvYEPI/AAAAAAAAPYc/qSWXAXVC0c4/s144/Booklet%2520%25284%2529.png[/IMG][/URL] [URL="https://picasaweb.google.com/lh/photo/2bVqmHWiwZdtbGrpfDyxey2OX3YDMug3w2Tb4El_uXI?feat=embedwebsite"][IMG]https://lh6.googleusercontent.com/-ipRSWSIEXow/UfgJzfFAtiI/AAAAAAAAPYU/7L0Oea8jL78/s144/Booklet%2520%25285%2529.png[/IMG][/URL] [URL="https://picasaweb.google.com/lh/photo/cJQVBB2aII0_wdP5d_mNFC2OX3YDMug3w2Tb4El_uXI?feat=embedwebsite"][IMG]https://lh6.googleusercontent.com/-NotekJ_JfgM/UfgKXaEgXxI/AAAAAAAAPY0/RVuAFJjp8Ds/s144/Booklet%2520%25286%2529.png[/IMG][/URL] [URL="https://picasaweb.google.com/lh/photo/R_AsP7NQ9iSkFe-hRTgWJC2OX3YDMug3w2Tb4El_uXI?feat=embedwebsite"][IMG]https://lh6.googleusercontent.com/-NADTzq9PC2o/UfgKTrQ3JcI/AAAAAAAAPYk/zbHAQ_Lt32w/s144/CD.png[/IMG][/URL] [URL="https://picasaweb.google.com/lh/photo/TjhWOlq7WSCZQf0H9hILsi2OX3YDMug3w2Tb4El_uXI?feat=embedwebsite"][IMG]https://lh6.googleusercontent.com/-Y8IRKyya3Nk/UfgKV4DWX8I/AAAAAAAAPYs/LCiIxPT_01w/s144/Front.jpg[/IMG][/URL] [URL="https://picasaweb.google.com/lh/photo/Sb7S0XJNFviUeAKA6gOSey2OX3YDMug3w2Tb4El_uXI?feat=embedwebsite"][IMG]https://lh4.googleusercontent.com/-_YaMppm_Cm8/UfgKjd1OY8I/AAAAAAAAPY8/l8Fpk64loeI/s144/Inside.png[/IMG][/URL]
[/spoiler][/align]


[align=center][IMG]http://1.bp.blogspot.com/_8INwxK7N7U0/TE-kbHbz5-I/AAAAAAAAEcE/xrUKuFLvgww/s1600/Temas+Online.png[/IMG][/align]


[align=center][youtube]NMNgbISmF4I[/youtube][/align]


[align=center][IMG]http://3.bp.blogspot.com/_8INwxK7N7U0/TE-jTmMzllI/AAAAAAAAEbk/6SgA1Qtejpw/s1600/Descarga.png[/IMG][/align]


[hide]Citar mensaje ocultado, si todavía está oculto.[/hide][/quote]
 



 
charly T Enviar mensaje privado
Volver arribaPágina inferior
Responder citando   Descargar mensaje  
Mensaje Re: Aerosmith - Get A Grip (1993) [WV] 
 
Buen aporte. Muchas gracias.
 



 
cyberis Enviar mensaje privado
Volver arribaPágina inferior
Mostrar mensajes anteriores:    
 

Publicar nuevo tema  Responder al tema  Página 1 de 1
 


Ocultar¿Este tema fue útil?

 

Elegir valoración:                       

Media de valoración Valoración mínima Valoración máxima Número de valoraciones
10.00 10 10 2
Compartir este tema
Correo a un amigo Facebook Twitter Windows Live Favorites MySpace del.icio.us Digg SlashDot google.com LinkedIn StumbleUpon Blogmarks Diigo reddit.com Blinklist co.mments.com
technorati.com DIGG ITA linkagogo.com meneame.net netscape.com newsvine.com yahoo.com Fai Informazione Ok Notizie Segnalo Bookmark IT fark.com feedmelinks.com spurl.net
 

Usuarios navegando en este tema: 0 registrados, 0 ocultos y 0 invitados
Usuarios registrados conectados: Ninguno


 
Lista de permisos
No puede crear mensajes
No puede responder temas
No puede editar sus mensajes
No puede borrar sus mensajes
No puede votar en encuestas
No puede adjuntar archivos
No puede descargar archivos
No puede publicar eventos en el calendario